<?xml version="1.0" standalone="no"?>
<!DOCTYPE svg PUBLIC "-//W3C//DTD SVG 1.1//EN" "http://www.w3.org/Graphics/SVG/1.1/DTD/svg11.dtd" >
<svg xmlns="http://www.w3.org/2000/svg">
<metadata>
This is a custom SVG webfont generated by Font Squirrel.
Copyright   : Copyright c 2008 by Roman Yershov Jovanny Lemonad All rights reserved
</metadata>
<defs>
<font id="MolotRegular" horiz-adv-x="1239" >
<font-face units-per-em="2048" ascent="1638" descent="-410" />
<missing-glyph horiz-adv-x="1003" />
<glyph unicode=" "  horiz-adv-x="1003" />
<glyph unicode="&#x09;" horiz-adv-x="1003" />
<glyph unicode="&#xa0;" horiz-adv-x="1003" />
<glyph unicode="!" horiz-adv-x="614" d="M61 1255v179h492v-179l-68 -747h-356zM106 0v358h404v-358h-404z" />
<glyph unicode="#" horiz-adv-x="1515" d="M41 285v288h285v285h-285v289h285v287h290v-287h283v287h291v-287h285v-289h-285v-285h285v-288h-285v-285h-291v285h-283v-285h-290v285h-285zM616 573h283v285h-283v-285z" />
<glyph unicode="$" horiz-adv-x="1040" d="M41 0v358h510v95l-389 260q-72 47 -96.5 99t-24.5 142v299q0 78 50 129.5t128 51.5h162v153h278v-153h340v-179l-71 -182h-439v-65l390 -260q72 -47 96 -100.5t24 -143.5v-326q0 -78 -50 -128t-130 -50h-160v-152h-278v152h-340z" />
<glyph unicode="&#x26;" horiz-adv-x="1216" d="M61 180v363q0 76 53.5 124t129.5 48v39q-76 0 -129.5 48t-53.5 126v325q0 78 50.5 129.5t128.5 51.5h833v-179l-69 -180h-496v-162h688v-358h-123v-375q0 -80 -50 -130t-130 -50h-653q-78 0 -128.5 50t-50.5 130zM508 358h117v197h-117v-197z" />
<glyph unicode="(" horiz-adv-x="514" d="M82 33v1366q0 217 95 314t312 97h25v-272h-25q-68 0 -93 -31.5t-25 -103.5v-1376q0 -72 25.5 -104t92.5 -32h25v-272h-25q-217 0 -312 98.5t-95 315.5z" />
<glyph unicode=")" horiz-adv-x="514" d="M0 -109h25q68 0 93 32t25 104v1376q0 72 -25.5 103.5t-92.5 31.5h-25v272h25q217 0 312 -97t95 -314v-1366q0 -217 -95 -315.5t-312 -98.5h-25v272z" />
<glyph unicode="*" horiz-adv-x="923" d="M82 1051l65 198l209 -69v221h211v-221l209 69l66 -198l-211 -70l129 -178l-168 -123l-129 178l-131 -178l-168 123l129 178z" />
<glyph unicode="+" horiz-adv-x="1093" d="M41 571v289h360v361h289v-361h363v-289h-363v-362h-289v362h-360z" />
<glyph unicode="," horiz-adv-x="567" d="M82 0v358h403v-295l-84 -217h-161v154h-158z" />
<glyph unicode="-" horiz-adv-x="1093" d="M41 571v289h1012v-289h-1012z" />
<glyph unicode="." horiz-adv-x="567" d="M82 0v358h403v-358h-403z" />
<glyph unicode="/" horiz-adv-x="1075" d="M0 0v78l788 1356h287v-78l-786 -1356h-289z" />
<glyph unicode="0" horiz-adv-x="1175" d="M82 178v1077q0 78 50 128.5t128 50.5h653q78 0 129.5 -50.5t51.5 -128.5v-1077q0 -78 -50.5 -128t-130.5 -50h-653q-78 0 -128 50t-50 128zM528 356h117v717h-117v-717z" />
<glyph unicode="1" horiz-adv-x="612" d="M82 0v1346l225 88h223v-1434h-448z" />
<glyph unicode="2" horiz-adv-x="1093" d="M41 0v475q0 92 24.5 145.5t96.5 98.5l444 278v76h-493l-72 182v179h833q78 0 128.5 -50.5t50.5 -128.5v-327q0 -94 -23.5 -148.5t-97.5 -95.5l-443 -250v-78h564v-356h-1012z" />
<glyph unicode="3" horiz-adv-x="1134" d="M41 0v356h565v199h-323v223l237 219v76h-407l-72 182v179h1003v-342l-174 -232q86 -6 134.5 -53t48.5 -133v-496q0 -78 -50.5 -128t-128.5 -50h-833z" />
<glyph unicode="4" horiz-adv-x="1204" d="M41 270v439l252 725h397v-179l-192 -550v-76h176v260h448v-889h-448v270h-633z" />
<glyph unicode="5" horiz-adv-x="1155" d="M82 0v356h565v199h-565v879h1003v-179l-69 -182h-486v-162h385q78 0 128.5 -50t50.5 -128v-555q0 -78 -50.5 -128t-128.5 -50h-833z" />
<glyph unicode="6" horiz-adv-x="1155" d="M82 178v1077q0 78 50 128.5t128 50.5h815v-179l-69 -182h-478v-162h385q80 0 130.5 -50t50.5 -128v-555q0 -78 -50.5 -128t-130.5 -50h-653q-78 0 -128 50t-50 128zM528 356h117v199h-117v-199z" />
<glyph unicode="7" horiz-adv-x="942" d="M20 1073v361h881v-369l-346 -1065h-416v115l303 909v49h-422z" />
<glyph unicode="8" horiz-adv-x="1175" d="M82 178v363q0 76 54 124t130 48v41q-76 0 -130 48t-54 124v329q0 78 51 128.5t129 50.5h653q78 0 128.5 -50.5t50.5 -128.5v-329q0 -76 -53.5 -124t-129.5 -48v-41q76 0 129.5 -48.5t53.5 -123.5v-363q0 -78 -50.5 -128t-128.5 -50h-653q-80 0 -130 50t-50 128zM530 356 h117v199h-117v-199zM530 911h117v162h-117v-162z" />
<glyph unicode="9" horiz-adv-x="1155" d="M61 698v557q0 78 50.5 128.5t128.5 50.5h653q80 0 130 -50.5t50 -128.5v-1077q0 -78 -50 -128t-130 -50h-780v356h512v162h-385q-78 0 -128.5 50t-50.5 130zM508 877h117v196h-117v-196z" />
<glyph unicode=":" horiz-adv-x="567" d="M82 0v358h403v-358h-403zM82 1073v361h403v-361h-403z" />
<glyph unicode=";" horiz-adv-x="567" d="M82 0v358h403v-295l-84 -217h-163v154h-156zM82 1073v361h403v-361h-403z" />
<glyph unicode="&#x3c;" horiz-adv-x="831" d="M41 621v129l416 370h293v-94l-390 -340l390 -340v-96h-293z" />
<glyph unicode="=" horiz-adv-x="1175" d="M82 319v291h1012v-291h-1012zM82 821v289h1012v-289h-1012z" />
<glyph unicode="&#x3e;" horiz-adv-x="833" d="M82 250v96l391 340l-391 340v94h295l416 -370v-129l-416 -371h-295z" />
<glyph unicode="?" horiz-adv-x="1073" d="M20 1255v179h832q80 0 130 -50.5t50 -128.5v-282q0 -92 -24.5 -146.5t-96.5 -97.5l-221 -125v-96h-403v119q0 90 24.5 141t96.5 102l176 127v76h-494zM287 0v358h403v-358h-403z" />
<glyph unicode="@" horiz-adv-x="1456" d="M82 215v1002q0 127 47 172t129 45h938q84 0 131 -45.5t47 -171.5v-822h-717q-72 0 -98.5 22.5t-26.5 94.5v410q0 70 27 92t98 22h426v125h-710v-889h1001v-272h-1116q-82 0 -129 44t-47 171zM815 668h268v98h-268v-98z" />
<glyph unicode="A" horiz-adv-x="1228" d="M41 0v178l201 1256h745l201 -1256v-178h-449l-26 289h-197l-29 -289h-446zM549 647h131l-41 426h-49z" />
<glyph unicode="B" horiz-adv-x="1218" d="M82 0v1434h895q80 0 130 -50.5t50 -128.5v-329q0 -76 -54 -124t-130 -48v-39q76 0 130 -48.5t54 -125.5v-363q0 -78 -50 -128t-130 -50h-895zM530 358h179v197h-179v-197zM530 913h179v160h-179v-160z" />
<glyph unicode="C" horiz-adv-x="1081" d="M82 178v1077q0 78 50 128.5t130 50.5h778v-179l-69 -182h-441v-715h510v-358h-778q-80 0 -130 50t-50 128z" />
<glyph unicode="D" horiz-adv-x="1236" d="M82 0v1434h895q78 0 128 -50.5t50 -128.5v-1077q0 -78 -50 -128t-128 -50h-895zM528 358h181v715h-181v-715z" />
<glyph unicode="E" horiz-adv-x="1081" d="M82 0v1434h958v-179l-71 -182h-441v-160h441v-358h-441v-197h512v-358h-958z" />
<glyph unicode="F" horiz-adv-x="1060" d="M82 0v1434h958v-179l-69 -182h-441v-231h441v-359h-441v-483h-448z" />
<glyph unicode="G" d="M82 178v1077q0 78 50 128.5t130 50.5h887v-179l-72 -182h-547v-715h179v482h448v-840h-895q-80 0 -130 50t-50 128z" />
<glyph unicode="H" horiz-adv-x="1236" d="M82 0v1434h446v-521h181v521h446v-1434h-446v555h-181v-555h-446z" />
<glyph unicode="I" horiz-adv-x="610" d="M82 0v1434h446v-1434h-446z" />
<glyph unicode="J" horiz-adv-x="808" d="M20 0v358h261v1076h446v-1256q0 -78 -50 -128t-128 -50h-529z" />
<glyph unicode="K" horiz-adv-x="1218" d="M82 0v1434h446v-521h82l107 521h426v-179l-166 -497l201 -580v-178h-447l-121 555h-82v-555h-446z" />
<glyph unicode="L" horiz-adv-x="999" d="M82 0v1434h446v-1076h451v-358h-897z" />
<glyph unicode="M" horiz-adv-x="1624" d="M41 0v178l147 1256h500l109 -566h30l109 566h502l145 -1256v-178h-436v688h-37l-111 -688h-374l-111 688h-35v-688h-438z" />
<glyph unicode="N" d="M82 0v1434h475l209 -664h37l-60 485v179h414v-1434h-475l-211 662h-35l58 -484v-178h-412z" />
<glyph unicode="O" d="M82 178v1077q0 78 50 128.5t130 50.5h715q80 0 130 -50.5t50 -128.5v-1077q0 -78 -50 -128t-130 -50h-715q-80 0 -130 50t-50 128zM530 358h179v715h-179v-715z" />
<glyph unicode="P" horiz-adv-x="1218" d="M82 0v1434h895q80 0 130 -50.5t50 -128.5v-628q0 -78 -50 -129.5t-130 -51.5h-447v-446h-448zM530 805h179v268h-179v-268z" />
<glyph unicode="Q" d="M82 178v1077q0 78 50 128.5t130 50.5h715q80 0 130 -50.5t50 -128.5v-1077q0 -78 -50 -128t-130 -50h-186l90 -139v-178h-340l-68 317h-211q-80 0 -130 50t-50 128zM530 358h179v715h-179v-715z" />
<glyph unicode="R" horiz-adv-x="1220" d="M82 0v1434h897q78 0 128 -50.5t50 -128.5v-563q0 -51 -35 -99t-84 -63l142 -352v-178h-439l-120 446h-91v-446h-448zM530 805h179v268h-179v-268z" />
<glyph unicode="S" horiz-adv-x="1040" d="M41 0v358h510v95l-389 258q-72 49 -96.5 101t-24.5 142v301q0 78 50 128.5t130 50.5h778v-177l-69 -184h-441v-65l390 -260q72 -47 96 -100.5t24 -143.5v-326q0 -78 -50 -128t-128 -50h-780z" />
<glyph unicode="T" horiz-adv-x="1044" d="M20 1073v361h1004v-179l-72 -182h-215v-1073h-448v1073h-269z" />
<glyph unicode="U" d="M82 178v1256h448v-1076h179v1076h448v-1434h-895q-80 0 -130 50t-50 128z" />
<glyph unicode="V" horiz-adv-x="1169" d="M20 1317v117h447l92 -1076h51l92 1076h447v-117l-227 -1317h-674z" />
<glyph unicode="W" horiz-adv-x="1624" d="M41 1255v179h438v-691h35l111 691h374l111 -691h37v691h436v-179l-145 -1255h-502l-109 563h-30l-109 -563h-500z" />
<glyph unicode="X" horiz-adv-x="1187" d="M20 0v170l201 588l-166 483v193h426l94 -521h37l95 521h426v-193l-166 -483l200 -588v-170h-448l-107 555h-37l-106 -555h-449z" />
<glyph unicode="Y" horiz-adv-x="1187" d="M20 1255v179h449l109 -557h32l111 557h446v-179l-350 -864v-391h-446v391z" />
<glyph unicode="Z" horiz-adv-x="1095" d="M41 0v367l483 657v49h-413l-70 182v179h995v-369l-485 -657v-50h504v-358h-1014z" />
<glyph unicode="[" horiz-adv-x="514" d="M82 -381v2191h432v-272h-143v-1647h143v-272h-432z" />
<glyph unicode="\" horiz-adv-x="1075" d="M0 1356v78h289l786 -1356v-78h-287z" />
<glyph unicode="]" horiz-adv-x="516" d="M0 -109h143v1647h-143v272h434v-2191h-434v272z" />
<glyph unicode="_" horiz-adv-x="1009" d="M0 -121h1010v-289h-1010v289z" />
<glyph unicode="a" horiz-adv-x="1228" d="M41 0v178l201 1256h745l201 -1256v-178h-449l-26 289h-197l-29 -289h-446zM549 647h131l-41 426h-49z" />
<glyph unicode="b" horiz-adv-x="1218" d="M82 0v1434h895q80 0 130 -50.5t50 -128.5v-329q0 -76 -54 -124t-130 -48v-39q76 0 130 -48.5t54 -125.5v-363q0 -78 -50 -128t-130 -50h-895zM530 358h179v197h-179v-197zM530 913h179v160h-179v-160z" />
<glyph unicode="c" horiz-adv-x="1081" d="M82 178v1077q0 78 50 128.5t130 50.5h778v-179l-69 -182h-441v-715h510v-358h-778q-80 0 -130 50t-50 128z" />
<glyph unicode="d" horiz-adv-x="1236" d="M82 0v1434h895q78 0 128 -50.5t50 -128.5v-1077q0 -78 -50 -128t-128 -50h-895zM528 358h181v715h-181v-715z" />
<glyph unicode="e" horiz-adv-x="1081" d="M82 0v1434h958v-179l-71 -182h-441v-160h441v-358h-441v-197h512v-358h-958z" />
<glyph unicode="f" horiz-adv-x="1060" d="M82 0v1434h958v-179l-69 -182h-441v-231h441v-359h-441v-483h-448z" />
<glyph unicode="g" d="M82 178v1077q0 78 50 128.5t130 50.5h887v-179l-72 -182h-547v-715h179v482h448v-840h-895q-80 0 -130 50t-50 128z" />
<glyph unicode="h" horiz-adv-x="1236" d="M82 0v1434h446v-521h181v521h446v-1434h-446v555h-181v-555h-446z" />
<glyph unicode="i" horiz-adv-x="610" d="M82 0v1434h446v-1434h-446z" />
<glyph unicode="j" horiz-adv-x="808" d="M20 0v358h261v1076h446v-1256q0 -78 -50 -128t-128 -50h-529z" />
<glyph unicode="k" horiz-adv-x="1218" d="M82 0v1434h446v-521h82l107 521h426v-179l-166 -497l201 -580v-178h-447l-121 555h-82v-555h-446z" />
<glyph unicode="l" horiz-adv-x="999" d="M82 0v1434h446v-1076h451v-358h-897z" />
<glyph unicode="m" horiz-adv-x="1624" d="M41 0v178l147 1256h500l109 -566h30l109 566h502l145 -1256v-178h-436v688h-37l-111 -688h-374l-111 688h-35v-688h-438z" />
<glyph unicode="n" d="M82 0v1434h475l209 -664h37l-60 485v179h414v-1434h-475l-211 662h-35l58 -484v-178h-412z" />
<glyph unicode="o" d="M82 178v1077q0 78 50 128.5t130 50.5h715q80 0 130 -50.5t50 -128.5v-1077q0 -78 -50 -128t-130 -50h-715q-80 0 -130 50t-50 128zM530 358h179v715h-179v-715z" />
<glyph unicode="p" horiz-adv-x="1218" d="M82 0v1434h895q80 0 130 -50.5t50 -128.5v-628q0 -78 -50 -129.5t-130 -51.5h-447v-446h-448zM530 805h179v268h-179v-268z" />
<glyph unicode="q" d="M82 178v1077q0 78 50 128.5t130 50.5h715q80 0 130 -50.5t50 -128.5v-1077q0 -78 -50 -128t-130 -50h-186l90 -139v-178h-340l-68 317h-211q-80 0 -130 50t-50 128zM530 358h179v715h-179v-715z" />
<glyph unicode="r" horiz-adv-x="1220" d="M82 0v1434h897q78 0 128 -50.5t50 -128.5v-563q0 -51 -35 -99t-84 -63l142 -352v-178h-439l-120 446h-91v-446h-448zM530 805h179v268h-179v-268z" />
<glyph unicode="s" horiz-adv-x="1040" d="M41 0v358h510v95l-389 258q-72 49 -96.5 101t-24.5 142v301q0 78 50 128.5t130 50.5h778v-177l-69 -184h-441v-65l390 -260q72 -47 96 -100.5t24 -143.5v-326q0 -78 -50 -128t-128 -50h-780z" />
<glyph unicode="t" horiz-adv-x="1044" d="M20 1073v361h1004v-179l-72 -182h-215v-1073h-448v1073h-269z" />
<glyph unicode="u" d="M82 178v1256h448v-1076h179v1076h448v-1434h-895q-80 0 -130 50t-50 128z" />
<glyph unicode="v" horiz-adv-x="1169" d="M20 1317v117h447l92 -1076h51l92 1076h447v-117l-227 -1317h-674z" />
<glyph unicode="w" horiz-adv-x="1624" d="M41 1255v179h438v-691h35l111 691h374l111 -691h37v691h436v-179l-145 -1255h-502l-109 563h-30l-109 -563h-500z" />
<glyph unicode="x" horiz-adv-x="1187" d="M20 0v170l201 588l-166 483v193h426l94 -521h37l95 521h426v-193l-166 -483l200 -588v-170h-448l-107 555h-37l-106 -555h-449z" />
<glyph unicode="y" horiz-adv-x="1187" d="M20 1255v179h449l109 -557h32l111 557h446v-179l-350 -864v-391h-446v391z" />
<glyph unicode="z" horiz-adv-x="1095" d="M41 0v367l483 657v49h-413l-70 182v179h995v-369l-485 -657v-50h504v-358h-1014z" />
<glyph unicode="&#xaa;" horiz-adv-x="1228" d="M41 0v178l201 1256h745l201 -1256v-178h-449l-26 289h-197l-29 -289h-446zM549 647h131l-41 426h-49z" />
<glyph unicode="&#xad;" horiz-adv-x="1093" d="M41 571v289h1012v-289h-1012z" />
<glyph unicode="&#xb2;" horiz-adv-x="1093" d="M41 0v475q0 92 24.5 145.5t96.5 98.5l444 278v76h-493l-72 182v179h833q78 0 128.5 -50.5t50.5 -128.5v-327q0 -94 -23.5 -148.5t-97.5 -95.5l-443 -250v-78h564v-356h-1012z" />
<glyph unicode="&#xb3;" horiz-adv-x="1134" d="M41 0v356h565v199h-323v223l237 219v76h-407l-72 182v179h1003v-342l-174 -232q86 -6 134.5 -53t48.5 -133v-496q0 -78 -50.5 -128t-128.5 -50h-833z" />
<glyph unicode="&#xb9;" horiz-adv-x="612" d="M82 0v1346l225 88h223v-1434h-448z" />
<glyph unicode="&#xba;" d="M82 178v1077q0 78 50 128.5t130 50.5h715q80 0 130 -50.5t50 -128.5v-1077q0 -78 -50 -128t-130 -50h-715q-80 0 -130 50t-50 128zM530 358h179v715h-179v-715z" />
<glyph unicode="&#x152;" horiz-adv-x="2320" d="M1321 0v1434h958v-179l-71 -182h-441v-160h441v-358h-441v-197h512v-358h-958zM82 178v1077q0 78 50 128.5t130 50.5h715q80 0 130 -50.5t50 -128.5v-1077q0 -78 -50 -128t-130 -50h-715q-80 0 -130 50t-50 128zM530 358h179v715h-179v-715z" />
<glyph unicode="&#x153;" horiz-adv-x="2320" d="M1321 0v1434h958v-179l-71 -182h-441v-160h441v-358h-441v-197h512v-358h-958zM82 178v1077q0 78 50 128.5t130 50.5h715q80 0 130 -50.5t50 -128.5v-1077q0 -78 -50 -128t-130 -50h-715q-80 0 -130 50t-50 128zM530 358h179v715h-179v-715z" />
<glyph unicode="&#x2000;" horiz-adv-x="905" />
<glyph unicode="&#x2001;" horiz-adv-x="1810" />
<glyph unicode="&#x2002;" horiz-adv-x="905" />
<glyph unicode="&#x2003;" horiz-adv-x="1810" />
<glyph unicode="&#x2004;" horiz-adv-x="603" />
<glyph unicode="&#x2005;" horiz-adv-x="452" />
<glyph unicode="&#x2006;" horiz-adv-x="301" />
<glyph unicode="&#x2007;" horiz-adv-x="301" />
<glyph unicode="&#x2008;" horiz-adv-x="226" />
<glyph unicode="&#x2009;" horiz-adv-x="362" />
<glyph unicode="&#x200a;" horiz-adv-x="100" />
<glyph unicode="&#x2010;" horiz-adv-x="1093" d="M41 571v289h1012v-289h-1012z" />
<glyph unicode="&#x2011;" horiz-adv-x="1093" d="M41 571v289h1012v-289h-1012z" />
<glyph unicode="&#x2012;" horiz-adv-x="1093" d="M41 571v289h1012v-289h-1012z" />
<glyph unicode="&#x2013;" horiz-adv-x="782" d="M41 541v288h700v-288h-700z" />
<glyph unicode="&#x2014;" horiz-adv-x="1626" d="M41 541v288h1544v-288h-1544z" />
<glyph unicode="&#x2018;" horiz-adv-x="567" d="M82 1073v297l86 215h162v-151h155v-361h-403z" />
<glyph unicode="&#x2019;" horiz-adv-x="567" d="M82 1073v361h403v-295l-84 -219h-163v153h-156z" />
<glyph unicode="&#x201c;" horiz-adv-x="1091" d="M82 1073v295l84 217h162v-151h157v-361h-403zM606 1073v297l86 215h162v-151h156v-361h-404z" />
<glyph unicode="&#x201d;" horiz-adv-x="1091" d="M82 1073v361h403v-297l-86 -215h-161v151h-156zM606 1073v361h404v-295l-84 -217h-162v151h-158z" />
<glyph unicode="&#x2026;" horiz-adv-x="1701" d="M1217 0v358h403v-358h-403zM649 0v358h403v-358h-403zM82 0v358h403v-358h-403z" />
<glyph unicode="&#x202f;" horiz-adv-x="362" />
<glyph unicode="&#x2039;" horiz-adv-x="831" d="M41 621v129l416 370h293v-94l-390 -340l390 -340v-96h-293z" />
<glyph unicode="&#x203a;" horiz-adv-x="833" d="M82 250v96l391 340l-391 340v94h295l416 -370v-129l-416 -371h-295z" />
<glyph unicode="&#x205f;" horiz-adv-x="452" />
<glyph unicode="&#x20ac;" horiz-adv-x="1163" d="M0 494v90l37 92h127v80h-164v92l37 90h127v315q0 78 50 129.5t128 51.5h780v-181l-71 -180h-441v-135h353v-90l-35 -92h-318v-80h250v-92l-35 -90h-215v-136h512v-358h-780q-78 0 -128 50t-50 128v316h-164z" />
<glyph unicode="&#x2122;" horiz-adv-x="2668" d="M1085 0v178l147 1256h500l109 -566h30l109 566h502l145 -1256v-178h-436v688h-37l-111 -688h-374l-111 688h-35v-688h-438zM20 1073v361h1004v-179l-72 -182h-215v-1073h-448v1073h-269z" />
<glyph unicode="&#xe000;" horiz-adv-x="1435" d="M0 1435h1435v-1435h-1435v1435z" />
<glyph unicode="&#xfb01;" horiz-adv-x="1671" d="M1143 0v1434h446v-1434h-446zM82 0v1434h958v-179l-69 -182h-441v-231h441v-359h-441v-483h-448z" />
<glyph unicode="&#xfb02;" horiz-adv-x="2060" d="M1143 0v1434h446v-1076h451v-358h-897zM82 0v1434h958v-179l-69 -182h-441v-231h441v-359h-441v-483h-448z" />
<glyph unicode="&#xfb03;" horiz-adv-x="2732" d="M2204 0v1434h446v-1434h-446zM1143 0v1434h958v-179l-69 -182h-441v-231h441v-359h-441v-483h-448zM82 0v1434h958v-179l-69 -182h-441v-231h441v-359h-441v-483h-448z" />
<glyph unicode="&#xfb04;" horiz-adv-x="3121" d="M2204 0v1434h446v-1076h451v-358h-897zM1143 0v1434h958v-179l-69 -182h-441v-231h441v-359h-441v-483h-448zM82 0v1434h958v-179l-69 -182h-441v-231h441v-359h-441v-483h-448z" />
</font>
</defs>
</svg>
